#TITLE:HELL SCAPER FOR NIMA;
#SUBTITLE:(REALLY FUCKING HARD);
#ARTIST:L.E.D LIGHT-G (Remixed by NVLM_ZK);
#TITLETRANSLIT:;
#SUBTITLETRANSLIT:;
#ARTISTTRANSLIT:;
#CREDIT:;
#BANNER:HELL SCAPER (800 turn mix).png;
#BACKGROUND:HELL SCAPER (800 turn mix)-bg.png;
#LYRICSPATH:;
#CDTITLE:NVLM-cdtitle.png;
#MUSIC:HELL SCAPER (800 turn mix).mp3;
#OFFSET:-3.663;
#SAMPLESTART:36.613;
#SAMPLELENGTH:12.000;
#SELECTABLE:YES;
#DISPLAYBPM:800.000;
#BPMS:0.000=800.000,424.000=700.000,425.000=500.000,426.000=250.000,426.500=800.000;
#STOPS:426.500=0.800
;
#BGCHANGES:;
// cache tags:
#FIRSTBEAT:0.000;
#LASTBEAT:1224.000;
#SONGFILENAME:Songs/Music V.I.P ^_^/HELL SCAPER (800 turn mix)/HELL SCAPER (800 turn mix).sm;
#HASMUSIC:1;
#HASBANNER:1;
#MUSICLENGTH:97.332;
// end cache tags

//---------------dance-single - ----------------
#NOTES:
     dance-single:
     :
     Hard:
     15:
     1.000,1.000,1.000,0.247,0.390,1118.000,300.000,24.000,734.000,16.000:
1001
0000
0000
0000
0000
0000
0000
0000
2200
0000
0000
0000
0000
0000
0000
0000
0000
0000
0000
0000
3300
MM00
0000
0000
0000
0000
0000
0000
0000
0000
0000
0000
,
1001
0000
0000
0000
0000
0000
0000
0000
0202
0000
0000
0000
0000
0000
0000
0000
0000
0000
0000
0000
0303
0M0M
0000
0000
0000
0000
0000
0000
0000
0000
0000
0000
,
0110
0000
0000
0000
0000
0000
0000
0000
2020
0000
0000
0000
0000
0000
0000
0000
0000
0000
0000
0000
3030
0000
0000
M0M0
0000
0000
0000
0000
0000
0000
0000
0000
,
0101
0000
0000
0000
0000
0000
0000
0000
0220
0000
0000
0000
0000
0000
0000
0000
0000
0000
0000
0000
0330
0000
0000
0MM0
0000
0000
0000
0000
0000
0000
0000
0000
,
1001
0000
0220
0000
0000
0330
0000
0000
,
0101
0000
0220
0000
0000
0330
0000
0000
,
1010
0000
0000
0000
0000
0000
0000
0000
0202
0000
0000
0000
0000
0000
0000
0000
0000
0000
0000
0000
0303
0M0M
0000
0000
0000
0000
0000
0000
0000
0000
0000
0000
,
1100
0000
0000
0000
0000
0000
0000
0000
0000
0000
0000
0000
0000
0000
0000
0000
2020
000M
0000
000M
0000
000M
0000
000M
0000
000M
0000
000M
0000
000M
0000
000M
0000
000M
0000
000M
0000
000M
0000
000M
0000
000M
0000
000M
0000
000M
0000
000M
0000
000M
0000
000M
0000
000M
0000
000M
0000
000M
0000
000M
0000
000M
0000
000M
,
0000
000M
0M00
000M
0M00
000M
0M00
000M
0M00
000M
0M00
000M
0M00
000M
0M00
000M
0M00
000M
0M00
000M
0M00
000M
0M00
000M
0M00
000M
0M00
000M
0M00
000M
0M00
0000
3030
0000
0000
0000
0000
0000
0000
0000
0000
0000
0000
0000
0000
0000
0000
0000
0001
0000
0000
0000
0000
0000
0000
0000
0000
0000
0000
0000
0000
0000
0000
0000
,
0010
0100
1000
0001
,
0010
0000
0100
0000
1000
0000
0000
0001
,
0010
0100
1000
0010
0100
0010
1000
0100
,
0010
0001
1000
0100
1000
0001
0010
0100
,
0000
0000
M001
M000
M000
M000
M001
M000
M000
M000
M001
0000
0000
0000
0001
0000
,
0000
1001
0010
0100
0010
1000
0000
0100
,
0000
0010
0000
0001
0000
0100
0000
0010
,
0000
1001
0100
0010
0100
0001
0000
0100
,
0000
0010
0000
1000
0000
0100
0000
0010
,
0000
0100
0000
0010
0000
0001
0000
1010
,
0100
0001
0010
0000
0100
0000
0000
1001
,
0100
0010
0100
1000
0000
0010
0000
0101
,
0010
0100
0001
1000
0000
0100
0000
0000
,
0001
0010
0001
0010
0001
0010
0001
0010
,
0001
0010
0100
1000
0001
0010
0100
1000
,
0001
0000
0000
0000
0000
0000
0000
MMM1
,
0000
MMM1
0000
MMM1
0000
MMM1
0000
MMM1
,
0000
MMM1
0000
0001
0000
0010
0000
1001
,
0100
0010
0100
1000
0000
0100
0000
1001
,
0100
0010
0100
1000
0000
0010
0000
1001
,
0100
0010
0100
0001
0000
0100
0000
0000
,
0000
MMM1
MMM0
MMM1
MMM0
MMM1
MMM0
MMM1
,
MMM0
0001
0000
0001
0000
0001
0000
0010
,
0000
0100
0000
1000
0000
0010
0000
0100
,
0000
0010
0000
1000
0000
0100
0000
0010
,
0000
0001
0000
1000
0000
0000
0010
0100
,
0001
1000
0000
0100
0000
0000
0010
1000
,
0001
0010
0000
0100
0000
1000
0010
0100
,
0001
1000
0000
0001
0000
0001
1000
0MM1
,
0000
0MM1
1000
0MM1
0000
0MM1
0000
MM01
,
0000
0MM1
0000
MM01
0000
0MM1
0000
MM01
,
0000
1MM1
0000
MMMM
,
0000
MM1M
0000
MM1M
0000
MM1M
0000
MM1M
,
0000
MM1M
0000
0010
0000
0010
1000
0100
,
0010
0001
0000
0000
0001
0100
0010
1000
,
0000
0100
0000
0010
0000
0001
0100
0010
,
1000
0100
0000
0000
0000
0000
0000
0000
,
0000
0011
0000
0011
0000
0011
0000
0000
,
0000
0110
0000
0110
0000
0110
0000
0000
,
0000
1010
0000
1010
0000
1010
0000
0000
,
0000
0110
0000
0110
0000
0110
0000
0000
,
0000
1001
0000
1001
0000
0000
0000
MMMM
,
0000
MMMM
0000
MMMM
0000
MMMM
0000
MMMM
,
0000
MMMM
0000
MMMM
0000
0000
0000
0000
,
0010
0010
0010
0010
1000
0010
1000
0000
,
0000
0001
0000
0001
0000
0001
0000
0000
,
0000
1001
0000
1001
0000
1001
0000
0000
,
0000
0010
0000
0010
0000
0010
0000
0000
,
0000
1001
0000
1001
0000
1001
0000
0000
,
0000
1000
0000
1000
0000
1000
0000
0000
,
0000
1001
0000
1001
0000
1001
0000
0000
,
0000
0010
0000
0010
0000
0010
0000
0000
,
0000
1001
0000
1001
0000
1001
0000
0000
,
1M1M
0000
1M1M
0000
,
1MM1
0000
1MM1
0000
,
11MM
0000
11MM
0000
,
1MM1
0000
1MM1
0000
,
MM11
0000
MM11
0000
,
1MM1
0000
1MM1
0000
,
1M1M
0000
1M1M
0000
,
1MM1
0000
1MM1
0000
,
1001
0001
0010
0100
,
1000
0010
0100
0010
,
1000
0100
0010
0100
,
1000
0001
0010
0100
,
1000
0000
0001
0010
0100
1000
0001
0010
,
0001
0010
0001
0010
0001
0010
0001
1000
,
0001
1000
0001
1000
0001
1000
0001
0010
,
0100
1000
0001
0000
0010
0000
0100
0000
,
0010
1000
0010
0100
,
0001
0010
0100
1000
,
0001
0010
0100
0010
,
1000
0000
0010
0000
0100
0000
0001
0010
,
0001
0010
0001
0010
0001
0010
0001
0010
,
0001
0010
0100
1000
0100
0010
0100
0010
,
0100
0010
0100
0010
0100
0010
0100
1000
,
0010
1000
0010
1000
0000
0000
0000
0000
,
1001
0010
0100
1000
,
0010
0100
0010
1000
,
0100
0010
0001
0100
,
0010
1000
0100
0010
,
0001
0000
0001
0010
0100
1000
0001
0010
,
0100
1000
0001
0100
0010
1000
0001
0100
,
0010
1000
0001
0010
0100
1000
0100
0010
,
0002
0000
0000
MMM0
0000
0000
0003
0000
,
1001
0100
0010
0100
,
1000
0001
0010
0100
,
0001
0001
0001
0001
,
0010
0000
0100
0000
1000
0000
0001
0100
,
0001
0100
M001
0100
M0M1
0100
M0M1
0100
,
M0M1
0100
M0M1
0100
M0M1
0100
M0M1
0100
,
M0M1
0100
M0M1
0100
M0M1
0100
M0M1
0100
,
0001
0000
MMMM
0000
,
001M
0100
0010
0100
M010
0100
001M
0100
,
M010
0100
001M
0100
M010
0100
001M
0100
,
M010
010M
M010
010M
M010
010M
M010
010M
,
M010
0000
000M
0000
M100
0000
000M
0000
M010
0000
000M
0000
M100
0000
000M
0000
M010
0000
000M
0000
M100
0000
000M
0000
M010
0000
000M
0000
M100
000M
M000
000M
,
M020
0000
0000
0000
0000
0000
0000
0000
0000
0000
0000
0000
0000
0000
0000
0000
MM0M
0000
0000
0000
0000
0000
0000
0000
0000
0000
0000
0000
0000
0000
0000
0000
MM0M
0000
0000
0000
0000
0000
0000
0000
0030
MMMM
0000
0000
0000
0000
0000
0000
0000
0000
0000
0000
0000
0000
0000
0000
0000
0000
0000
0000
0000
0000
0000
0000
,
1001
0000
1100
0000
,
MMMM
0000
1001
0000
,
MMMM
0000
1001
0000
,
MMMM
0000
MM11
0000
,
1M1M
0000
MM11
0000
,
1M1M
0000
MM11
0000
,
1M1M
0000
MM11
0000
,
1MM1
0000
MMMM
0000
,
1001
0000
0101
0000
,
MMMM
0000
1001
0000
,
MMMM
0000
1001
0000
,
MMMM
0000
11MM
0000
,
MM11
0000
11MM
0000
,
MM11
0000
11MM
0000
,
MM11
0000
11MM
0000
,
1MM1
0000
MMMM
0000
,
1001
0000
1100
0000
,
MMMM
0000
1001
0000
,
MMMM
0000
1001
0000
,
MMMM
0000
MM11
0000
,
1M1M
0000
MM11
0000
,
1M1M
0000
MM11
0000
,
1M1M
0000
MM11
0000
,
1MM1
0000
MMMM
0000
,
1001
0000
0101
0000
,
MMMM
0000
1001
0000
,
MMMM
0000
1001
0000
,
MMMM
0000
11MM
0000
,
MM11
0000
0011
1100
,
001M
1100
0011
1100
,
001M
1100
0011
1100
,
001M
1100
0011
1100
,
001M
1001
0010
M001
,
0010
1001
0010
M001
,
0010
1001
0010
M001
,
0010
1001
0010
M001
,
0010
1001
0010
M001
,
0010
1001
0010
M001
,
0010
1001
0010
M001
,
0010
1001
0010
M001
,
0010
1100
0001
M100
,
0001
1100
0001
M100
,
0001
1100
0001
M100
,
0001
1100
0001
M100
,
0001
1100
0001
M100
,
0001
1100
0001
M100
,
0001
1100
0001
M100
,
0001
1100
0001
M100
,
0001
0110
1000
01M0
,
1000
0110
1000
01M0
,
1000
0110
1000
01M0
,
1000
0110
1000
01M0
,
1000
0110
1000
01M0
,
1000
0110
1000
01M0
,
1000
0110
1000
01M0
,
1000
0110
1000
01M0
,
1000
0101
1000
0010
,
010M
1000
0010
0101
,
1000
0010
010M
1000
,
0010
0101
1000
0010
,
010M
1000
0010
0101
,
1000
0010
010M
1000
,
0010
0101
1000
0010
,
010M
1000
0010
0101
,
0001
1MM1
0001
0001
,
0001
1MM1
0001
0001
,
0001
1MM1
0001
0001
,
0001
1MM1
0001
0001
,
0001
1MM1
0001
0001
,
0001
1MM1
0001
0001
,
0001
1MM1
0001
0001
,
0001
1MM1
0001
0001
,
0001
1MM1
0001
0001
,
0001
1MM1
0001
0001
,
0001
1MM1
0001
0001
,
0001
1MM1
0001
0001
,
0001
1MM1
0001
0001
,
0001
1MM1
0001
0001
,
0001
1MM1
0001
0001
,
0001
0000
0001
0000
0001
1000
0001
1000
,
0001
1000
0001
0000
0000
0000
0000
0000
,
1001
0000
MMMM
0000
,
1100
0000
1100
0000
,
1001
1001
1001
1001
,
1101
0001
10M1
0001
,
1101
0001
10M1
0001
,
1101
0001
10M1
0001
,
1101
0001
10M1
0001
,
1101
0001
10M1
0001
,
1101
0001
10M1
0001
,
1101
0001
10M1
0001
,
1101
0001
10M1
0001
,
1101
0001
10M1
0001
,
1101
0001
10M1
0001
,
1101
0001
10M1
0001
,
1101
0001
10M1
0001
,
1101
0001
10M1
0001
,
1101
0001
10M1
0001
,
1101
0001
10M1
0001
,
1101
0001
10M1
0001
,
0001
M100
M100
001M
,
001M
1M00
1M00
00M1
,
00M1
M100
M100
001M
,
001M
0M01
0M01
10M0
,
10M0
010M
010M
M010
,
M010
M100
M100
00M1
,
00M1
1M00
1M00
001M
,
0M10
001M
0M10
M001
,
M001
M100
M100
001M
,
001M
1M00
1M00
00M1
,
00M1
M100
M100
00M1
,
00M1
1000
1000
0MM1
,
1MM1
0000
MMMM
MMMM
,
MMMM
MMMM
MMMM
0000
,
MM11
0000
1M1M
0000
,
MM11
0000
1M1M
0000
,
MM11
0000
1M1M
0000
,
MM11
0000
1M1M
0000
,
M11M
0000
MM11
0000
,
M11M
0000
MM11
0000
,
M11M
0000
MM11
0000
,
M11M
0000
MM11
0000
,
11MM
0000
MM11
0000
,
11MM
0000
MM11
0000
,
11MM
0000
MM11
0000
,
11MM
0000
MM11
0000
,
1M1M
0000
M1M1
0000
,
1M1M
0000
M1M1
0000
,
1M1M
0000
M1M1
0000
,
1M1M
0000
M1M1
0000
,
0001
0001
0001
0000
0001
0000
0001
0000
,
0001
0000
0000
0000
0000
0000
1000
0000
0M00
0000
0000
00M0
1000
0000
0M0M
0000
0000
00M0
1000
0000
0M00
0000
0000
0000
,
1000
0000
0001
1000
0001
1000
0001
1000
,
0001
1000
0001
1000
0001
1000
0001
1000
,
0011
0000
11MM
0000
,
MM11
0000
11MM
0000
,
MM11
0000
11MM
0000
,
MM11
0000
11MM
0000
,
M11M
0000
1MM1
0000
,
M11M
0000
1MM1
0000
,
M11M
0000
1MM1
0000
,
M11M
0000
1MM1
0000
,
MM11
0000
1M1M
0000
,
MM11
0000
1M1M
0000
,
MM11
0000
1M1M
0000
,
MM11
0000
1M1M
0000
,
MM22
0000
0000
0000
,
0000
0000
0000
0033
,
0011
1001
0000
0011
,
1001
0000
M11M
0000
,
001M
M100
001M
M100
001M
M100
001M
0000
,
2002
0000
0000
0000
,
3003
0000
MMMM
MMMM
,
MMMM
MMMM
MMMM
0000
,
0010
0010
0010
0100
0010
0100
0010
0100
,
0010
0100
0010
0100
0010
0100
0010
0100
,
0001
1000
0001
1000
0001
1000
0001
0000
,
1000
0100
0010
0001
1000
0000
0000
0000
,
0101
1001
0000
1001
,
0000
0101
1001
0000
,
0101
0000
0000
0000
1001
0000
0000
1000
,
0001
1000
0001
1000
0001
1000
0000
0000
,
0101
1001
0000
0110
,
0000
0110
1001
0000
,
1010
0000
0000
0000
1001
0000
0000
0001
,
1000
0001
1000
0001
1000
0001
0000
0000
,
0110
1001
0000
1001
,
0000
0101
1001
0000
,
0101
0000
0000
0000
1001
0000
0000
0001
,
1000
0001
1000
0001
1000
0001
0000
0000
,
0011
1001
0000
1001
,
0000
1001
1100
0000
,
0101
0000
0101
0000
,
0000
1MMM
0000
1MMM
0000
1MMM
0000
0000
,
0000
MMM1
0000
MMM1
0000
MMM1
0000
0000
,
0000
1MMM
0000
1MMM
0000
1MMM
0000
0000
,
0000
MMM1
0000
MMM1
0000
MMM1
0000
0000
,
0000
0001
0010
0001
0010
0001
0010
0001
,
0000
1000
0010
0100
,
0010
1000
0100
0010
,
0001
0100
0010
0100
,
1000
0100
0010
0001
0010
0100
1000
0000
,
1000
0100
0010
0100
,
1000
0001
0100
0010
,
1000
0010
0100
0001
,
1000
0100
1000
0100
1000
0100
1000
0000
,
0001
0010
0100
1000
,
0010
0100
0010
0001
,
0100
0010
0100
1000
,
0001
0010
0100
1000
0100
0010
0001
0000
,
0001
0010
0100
1000
,
0100
0010
0100
1000
,
0001
0010
0100
1000
,
0001
0010
0100
1000
0001
0010
0100
1000
,
0001
0001
0001
0001
,
0001
0001
0001
0001
,
0001
0001
0001
M1M0
,
0001
0001
0001
0001
,
2002
0000
0000
0000
,
3003
0000
0000
0000
;
